JalsaTime.Com - We Share What We Have


Go Back   JalsaTime.Com - We Share What We Have > JALSATORRENT - INDIAN CINEMA TORRENTS > Tamil Torrents (Kollywood) Cinemas > CAM/TC/Pre-DVD/DVD-Scr
Forgot Password? Free Registration

CAM/TC/Pre-DVD/DVD-Scr Download Latest Movies, Pre-Releases, CAM, Super CAM, TC-Rip, TS, r5, Rips.


Reply
 
Thread Tools
  #1  
Old 09-30-2013, 10:19 AM
JT Ruler JT Ruler is offline
JalsaTime Registered
 
Join Date: Sep 2013
Posts: 97
UL: 26.16 tb DL: 24.27 tb Ratio: 1.08
Arrow Raja Rani (2013) - DVDSCR - x264 - MKV - 500MB - JalsaTime.Com



Raja Rani (2013) - DVDSCR - x264 - MKV - 500MB - JalsaTime.Com





Code:
Format                                   : Matroska
Format version                           : Version 4 / Version 2
File size                                : 496 MiB
Duration                                 : 2h 43mn
Overall bit rate mode                    : Variable
Overall bit rate                         : 424 Kbps
Encoded date                             : UTC 2010-02-22 21:41:31
Writing application                      : mkvmerge v5.9.0 ('On The Loose') built on Dec  9 2012 15:37:01
Writing library                          : libebml v1.3.0 + libmatroska v1.4.0

Video
ID                                       : 1
Format                                   : AVC
Format/Info                              : Advanced Video Codec
Format profile                           : High@L4.1
Format settings, CABAC                   : Yes
Format settings, ReFrames                : 5 frames
Muxing mode                              : Header stripping
Codec ID                                 : V_MPEG4/ISO/AVC
Duration                                 : 2h 43mn
Bit rate mode                            : Variable
Bit rate                                 : 374 Kbps
Maximum bit rate                         : 14.5 Mbps
Width                                    : 608 pixels
Height                                   : 256 pixels
Display aspect ratio                     : 2.40:1
Frame rate mode                          : Constant
Frame rate                               : 29.970 fps
Color space                              : YUV
Chroma subsampling                       : 4:2:0
Bit depth                                : 8 bits
Scan type                                : Progressive
Bits/(Pixel*Frame)                       : 0.080
Stream size                              : 430 MiB (87%)
Writing library                          : x264 core 133 r2334 a3ac64b
Encoding settings                        : cabac=1 / ref=6 / deblock=1:-1:-1 / analyse=0x3:0x133 / me=umh / subme=10 / psy=1 / psy_rd=1.00:0.15 / mixed_ref=1 / me_range=24 / chroma_me=1 / trellis=2 / 8x8dct=1 / cqm=0 / deadzone=21,11 / fast_pskip=1 / chroma_qp_offset=-3 / threads=6 / lookahead_threads=1 / sliced_threads=0 / nr=0 / decimate=1 / interlaced=0 / bluray_compat=1 / constrained_intra=0 / bframes=3 / b_pyramid=1 / b_adapt=2 / b_bias=0 / direct=3 / weightb=1 / open_gop=1 / weightp=1 / keyint=29 / keyint_min=1 / scenecut=40 / intra_refresh=0 / rc_lookahead=29 / rc=2pass / mbtree=1 / bitrate=374 / ratetol=1.0 / qcomp=0.60 / qpmin=10 / qpmax=51 / qpstep=4 / cplxblur=20.0 / qblur=0.5 / vbv_maxrate=14500 / vbv_bufsize=14500 / nal_hrd=vbr / ip_ratio=1.40 / aq=1:1.00
Language                                 : Tamil
Default                                  : Yes
Forced                                   : No

Audio
ID                                       : 2
Format                                   : MPEG Audio
Format version                           : Version 2
Format profile                           : Layer 3
Mode                                     : Joint stereo
Muxing mode                              : Header stripping
Codec ID                                 : A_MPEG/L3
Codec ID/Hint                            : MP3
Duration                                 : 2h 43mn
Bit rate mode                            : Constant
Bit rate                                 : 48.0 Kbps
Channel(s)                               : 2 channels
Sampling rate                            : 22.05 KHz
Compression mode                         : Lossy
Stream size                              : 56.1 MiB (11%)
Language                                 : Tamil
Default                                  : Yes
Forced                                   : No




Please Seed Back After Download

Seeding Will Be Slow Please Be Patient

Ripper: Thalaivaa
Attached Files
File Type: torrent Raja Rani (2013) - DVDSCR - x264 - MKV - 500MB - JalsaTime.Com.torrent (20.4 KB, 107 views), size: 496.01 mb, completed: 161
Name Size
Reply With Quote


  #2  
Old 09-30-2013, 10:24 AM
STR4NTR's Avatar
STR4NTR STR4NTR is offline
JalsaTime Registered
 
Join Date: Jun 2013
Posts: 1,501
UL: 895.36 tb DL: 862.56 tb Ratio: 1.04
Default

Excellent Release Brother...!!
Superrr' Awesome Awesome !!
Reply With Quote
  #3  
Old 09-30-2013, 05:01 PM
ganeshsundar ganeshsundar is offline
JalsaTime Registered
 
Join Date: Sep 2013
Posts: 2
UL: 3.07 gb DL: 2.51 gb Ratio: 1.22
Default

good job thanks
Reply With Quote
Reply

Bookmarks

Tags
2013, 500mb, dvdscr, jalsatimecom, mkv, raja, rani, x264

Thread Tools

Posting Rules
You may not post new threads
You may not post replies
You may not post attachments
You may not edit your posts

BB code is On
Smilies are On
[IMG] code is On
HTML code is Off






All times are GMT +5.5. The time now is 01:16 PM.


Powered by vBulletin® Version 3.8.6
Copyright ©2000 - 2014, Jelsoft Enterprises Ltd.
Please enable / Bitte aktiviere JavaScript!
Veuillez activer / Por favor activa el Javascript![ ? ]